#TITLE:Kichin To Chicken;
#SUBTITLE:;
#ARTIST:Hatsune Miku & Kagamine Rin;
#TITLETRANSLIT:;
#SUBTITLETRANSLIT:;
#ARTISTTRANSLIT:;
#CREDIT:;
#BANNER:Hatsune Miku & Kagamine Rin - Kichin to Chicken-banner.jpg;
#BACKGROUND:Hatsune Miku & Kagamine Rin - Kichin to Chicken-bg.jpg;
#LYRICSPATH:Hatsune Miku & Kagamine Rin - Kichin To Chicken.lrc;
#CDTITLE:CDTitle.png;
#MUSIC:Hatsune Miku & Kagamine Rin - Kichin To Chicken.ogg;
#OFFSET:-0.440;
#SAMPLESTART:7.860;
#SAMPLELENGTH:12.000;
#SELECTABLE:YES;
#BPMS:0.000=161.000;
#STOPS:;
#BGCHANGES:;
// cache tags:
#FIRSTBEAT:2.000;
#LASTBEAT:234.000;
#SONGFILENAME:songs/Vocaloid Party/Hatsune Miku & Kagamine Rin - Kichin To Chicken/Hatsune Miku & Kagamine Rin - Kichin To Chicken.sm;
#HASMUSIC:1;
#HASBANNER:1;
#MUSICLENGTH:89.980;
// end cache tags

//---------------dance-single - ----------------
#NOTES:
     dance-single:
     :
     Challenge:
     9:
     0.680,0.715,0.211,0.211,0.244,390.000,19.000,19.000,1.000,40.000:
0000
0000
0000
0000
0000
0000
0000
0000
1000
0001
0000
0000
1000
0001
0000
0000
,
1000
0100
1000
0010
1000
0100
1000
0000
,
0001
0010
0001
0100
0001
0010
0001
0000
,
0100
0001
0100
1000
0100
0010
0100
0000
,
0010
0000
0000
0100
0010
0000
0000
0000
0100
0001
0100
0001
0100
0000
0000
0000
,
0010
1000
0010
0100
0001
0100
0000
0000
,
0001
0010
0100
1000
0002
0000
0013
0100
,
0010
0001
1000
0010
1000
0001
0000
0000
,
0100
0010
0100
0001
0010
0100
0010
0100
,
1000
0000
0100
0000
0010
0001
1000
0100
,
1000
0001
0000
0000
1000
0001
0000
0000
1000
0010
0000
0000
1000
0010
0000
0000
,
0100
0001
0100
0001
1000
0100
0010
0001
,
0100
0000
0000
0000
0010
0000
0000
0000
1000
0001
0100
0010
1000
0000
0000
0000
,
0100
0010
0100
0010
0001
0100
1001
0000
,
0010
0000
1000
0000
0100
0000
0010
0001
0010
0000
0100
0000
1000
0000
0001
0000
,
1000
0010
0100
0001
0100
0010
0101
0000
,
1000
0000
0010
0000
0100
0000
0010
0000
0100
0001
0010
0100
1000
0000
0010
0000
,
0100
0001
0100
0010
1000
0010
0000
0000
,
0100
0001
0100
0010
2000
0000
3001
0100
,
0001
0010
0001
1000
0010
1000
0000
0000
,
0100
0000
0010
0001
0100
0010
1000
0001
,
0100
0000
0010
0000
1000
0000
0010
0100
,
0001
1000
0000
0000
0001
1000
0000
0000
0010
0100
0000
0000
0010
0100
0000
0000
,
0001
0100
0001
0100
0001
0010
0100
1000
,
0001
0100
0010
0110
,
0202
0000
0010
0000
1000
0010
1000
0010
,
1000
0000
0010
1000
0000
1000
0010
0010
,
1000
0000
1000
0010
1000
0010
0000
1000
,
0010
0000
0010
1000
0000
0000
0303
0000
,
2200
0000
0010
0000
0001
0010
0001
0010
,
0001
0010
0001
0010
0000
0001
0010
0010
,
0001
0001
0010
0010
,
0001
0000
0001
0000
0010
0001
0000
0000
,
3300
0000
1000
0000
0100
1100
0000
1001
,
0001
0000
1000
0000
0010
0100
0001
0010
,
0001
0000
1010
0000
0100
0110
0000
0011
,
0001
0000
0000
0000
0101
0000
0100
0000
0000
0000
0000
0000
0001
1000
0001
0000
,
1000
1100
0000
0001
1000
0100
0010
0000
,
0001
0101
0100
0001
0100
0010
0100
0010
,
2000
0000
0000
0000
3100
0010
0100
0010
0200
0000
0000
0000
0310
0001
0010
0001
,
0020
0000
0000
0000
0031
1000
0001
1000
0002
0000
0000
0000
0103
0001
0100
0010
,
1000
0000
0100
0000
0000
0000
1000
0001
0100
0000
0001
0000
0000
0000
1000
0001
,
0010
0000
0000
0000
0000
0000
0001
0100
0010
0000
0000
0000
1000
0100
0010
0000
,
0100
1000
0100
0010
0001
0010
1100
0000
,
0010
1000
0001
0100
0020
0000
0130
0001
,
1000
0001
1000
0010
0100
0010
1010
0000
,
1000
0001
0100
0010
1000
0000
0001
0100
,
0010
0000
1000
0000
0001
1000
0010
0100
,
0010
1000
0000
0000
0010
0100
0000
0000
0010
1000
0000
0000
0010
0100
0000
0000
,
0001
1000
0100
0100
0010
0001
1000
0100
,
0010
0001
1000
0101
,
1000
0001
0100
0100
0010
1000
0001
0010
,
0100
0000
1000
0001
0100
0000
0010
1000
0000
1000
0000
0000
0010
1000
0010
1000
,
0020
0000
0130
0010
1000
0001
0100
0010
,
2020
0000
0000
3030
0100
0000
0001
0000
1000
0000
0010
0000
0100
0000
0001
0000
,
0202
0000
0000
0303
0010
0000
0001
0000
1000
0000
0100
0000
0010
0000
0001
0000
,
0220
0000
0000
0330
1000
0000
0000
0000
0001
0010
0100
0010
0100
0010
0100
0010
,
0200
0000
0000
0000
,
0000
0000
0000
0300
0M00
0000
0000
0000
;

//---------------dance-single - ----------------
#NOTES:
     dance-single:
     :
     Beginner:
     1:
     0.105,0.158,0.033,0.022,0.000,61.000,3.000,2.000,0.000,0.000:
0000
0000
0000
0000
,
1000
0000
0000
0000
,
0001
0000
0000
0000
,
1000
0000
0000
0000
,
0001
0000
0100
0000
,
0010
0000
0000
0000
,
1000
0000
0000
0000
,
0001
0000
0000
0000
,
1000
0000
0000
0000
,
0010
0000
0000
0000
,
0100
0000
0000
0000
,
0001
0000
0000
0000
,
1000
0000
0001
0000
,
1000
0000
0000
0000
,
0010
0000
0000
0000
,
0100
0000
0000
0000
,
0010
0000
0000
0000
,
0100
0000
0000
0000
,
0001
0000
0000
0000
,
1000
0000
0000
0000
,
0001
0000
0000
0000
,
0100
0000
0000
0000
,
0001
0000
0000
0000
,
1000
0000
0000
0000
,
0010
0000
1000
0000
,
0001
0000
0000
0000
,
0100
0000
0000
0000
,
0001
0000
0000
0000
,
1000
0000
0000
0000
,
0010
0000
0000
0000
,
0100
0000
0000
0000
,
0001
0000
0000
0000
,
1000
0000
0001
0000
,
1000
0000
0000
0000
,
0010
0000
0000
0000
,
0100
0000
0000
0000
,
0001
0000
0000
0000
,
1010
0000
0000
0000
,
0110
0000
0000
0000
,
0101
0000
0000
0000
,
0001
0000
0000
0000
,
0000
0000
0000
0000
,
0000
0000
0000
0000
,
1000
0000
0000
0000
,
0010
0000
0000
0000
,
0100
0000
0000
0000
,
0001
0000
0000
0000
,
1000
0000
0000
0000
,
0100
0000
0000
0000
,
0010
0000
0000
0000
,
0002
0000
1003
0000
,
1000
0000
0000
0000
,
0002
0000
1003
0000
,
1000
0000
0000
0000
,
0010
0000
0000
0000
,
0100
0000
0000
0000
,
0001
0000
0000
0000
,
0100
0000
0000
0000
;

//---------------dance-single - ----------------
#NOTES:
     dance-single:
     :
     Hard:
     8:
     0.549,0.602,0.289,0.189,0.039,303.000,26.000,17.000,22.000,0.000:
0000
0000
0000
0000
0000
0000
0000
0000
1000
0010
0000
0000
0100
0001
0000
0000
,
1000
M000
1000
0100
0010
0001
0100
0000
,
0100
0M00
0100
0001
1000
0010
1000
0000
,
1000
M000
1000
0001
0010
0001
0010
0000
,
1001
00M0
0110
M000
,
0100
0001
1000
0010
0100
0010
0000
0000
,
1000
0100
0010
0100
0010
0000
0001
0000
,
0100
0010
0100
0001
0010
0100
0000
0000
,
1000
0100
0010
0100
1000
0000
0001
0000
,
1100
0110
0010
0001
,
1000
0001
1000
0001
0010
0100
1000
0000
,
0010
0100
0001
0100
0010
1000
0100
0000
,
1010
0000
0101
0000
1010
0000
0000
0010
,
0110
0000
0100
0000
0000
0000
0001
0100
0001
0000
0100
0000
0000
0000
0010
0000
,
1010
0000
1000
0000
0000
0000
0001
0000
1000
0001
1000
0000
0001
0000
1000
0000
,
1100
0000
1000
0000
0000
0000
0001
0010
0001
0000
0010
0000
0000
0000
0100
0000
,
1001
0000
0010
0000
0000
0000
0100
0000
0001
0000
1000
0001
0100
0000
0000
0000
,
0001
0100
0001
0100
0010
1000
0000
0000
,
0010
0100
0010
1000
0010
0000
1000
0000
,
0100
0010
0001
1000
0100
0010
0000
0000
,
0001
0000
0100
0010
1000
0000
0001
0000
,
1010
0110
0001
1000
,
0001
0100
0001
0100
0010
1000
0100
0000
,
1000
0001
1000
0010
0100
0001
1000
0000
,
1100
0000
0011
0000
2200
3300
MM00
0000
,
0001
0000
1000
0000
0010
0100
0010
0100
,
0010
0000
1000
0001
0000
1000
0001
0100
,
0010
0000
1000
0010
0100
0010
0000
1000
,
0001
0000
0100
0010
0000
0000
0000
0000
,
1000
0000
0100
0000
0010
0100
1000
0010
,
0100
0001
1000
0010
0000
0100
0001
1000
,
0200
0000
0320
0000
0032
0100
2003
0000
,
3020
0000
0000
0000
0230
0000
0000
0000
0310
0000
2000
0000
0000
0000
3000
0010
,
0100
0002
2003
3100
,
0020
0000
0032
0000
1003
0010
0000
0000
,
M10M
00M0
0000
0000
M0M1
0M00
0000
0000
,
1MM0
000M
0000
0010
0000
0000
0201
0301
,
0100
0010
0000
1000
0001
1000
0010
0000
,
0120
0130
0010
1000
0010
0100
0010
1000
,
0001
M00M
1000
M00M
,
0001
0000
M00M
1000
0000
0000
0000
0000
,
0010
0010
0000
0000
0100
0100
0000
0000
,
1001
0000
0000
1010
0000
0000
0110
0000
,
1000
0100
1000
0010
0100
0001
0000
0000
,
1000
0010
0100
0010
0100
0000
0001
0000
,
1000
0010
0100
0001
1000
0010
0000
0000
,
0100
0001
0100
0010
1000
0000
0001
0000
,
0100
0010
1000
0001
,
0100
0010
0100
0010
1000
0001
0100
0000
,
0001
0010
0100
0010
0001
1000
0100
0000
,
2010
0000
0001
3000
0110
0000
1000
0000
,
0010
0100
0001
1000
0100
1000
0010
0000
,
0120
0000
1000
0030
1001
0000
0000
0000
,
1000
0000
0010
0100
0001
0010
1000
0000
,
0010
0000
0001
0100
0010
0100
1000
0000
,
0100
0000
0001
1000
0010
0100
0010
0000
,
1000
0000
0010
0000
,
1001
0000
0000
0000
;

//---------------dance-single - ----------------
#NOTES:
     dance-single:
     :
     Medium:
     5:
     0.437,0.412,0.033,0.200,0.000,254.000,3.000,18.000,0.000,0.000:
0000
0000
1010
0110
,
0002
1000
0010
0100
,
2003
0001
0010
0100
,
3002
1000
0010
0100
,
2003
0000
3020
0030
,
1000
0000
0010
0000
0010
1000
0000
0000
,
1000
0001
1000
0010
1000
0000
0010
0000
,
0100
0000
0001
0000
0001
0100
0000
0000
,
0001
0010
0001
1000
0001
0000
1000
0000
,
0100
0010
0100
1000
,
0001
0100
0010
0000
1000
0100
0010
0000
,
0001
1000
0010
0100
,
0010
1000
0001
0000
,
1000
0000
0001
0000
1000
0010
0000
1000
,
0010
0000
0100
0000
0001
0010
0000
0001
,
0010
0000
0100
0000
1000
0001
0100
0010
,
1000
0000
0100
0000
1000
0001
0100
0000
,
0010
0000
1000
0000
0010
0100
0000
0000
,
0001
1000
0001
1000
0001
0000
1000
0000
,
0100
0000
0010
0000
1000
0001
0000
0000
,
0100
0000
1000
0010
0100
0000
0010
1000
,
0010
1000
0001
0100
,
0010
1000
0010
0000
0100
0001
0100
0000
,
0010
1000
0010
0100
,
0010
1000
0001
0110
,
0010
0000
1000
0000
0010
0100
0010
0000
,
1000
0000
0100
0010
0000
0001
0100
0000
,
0010
0000
1000
0000
0100
1000
0000
0100
,
0010
0000
0001
0100
0000
0010
1000
0000
,
0100
0000
1000
0000
0001
0010
0100
0000
,
0001
0000
1000
0010
0000
1000
0001
0000
,
0100
0010
1000
0001
,
0100
0000
0010
0000
0100
0001
0100
0010
,
0100
0001
1000
0010
,
1000
0000
0100
0000
0010
0100
0000
1000
,
0010
1000
0001
0100
,
0001
0000
0010
0001
0000
1000
0100
0000
,
0010
0100
1000
0000
0010
0100
0010
0000
,
1000
0001
0100
0000
0010
1000
0100
0000
,
0020
0001
0230
0001
,
2300
0010
3200
0001
,
0320
0000
0230
0000
,
2300
0000
3020
0000
,
1030
0000
0001
0000
1000
0010
0000
0000
,
0100
0001
1000
0010
0100
0000
0010
0000
,
1000
0000
0010
0000
0100
0010
0000
0000
,
1000
0100
1000
0010
1000
0000
0010
0100
,
0001
1000
0010
0100
,
0001
0010
0001
0000
1000
0010
0100
0000
,
0010
0100
0010
0000
0100
0010
0100
0000
,
0010
1000
0001
0000
,
1000
0001
0100
0000
0010
1000
0001
0000
,
0100
0010
1000
0000
,
0020
0000
0000
1030
,
0020
0100
0000
1030
,
0002
0100
0000
0013
,
0200
0000
0000
0000
2000
0000
0000
0300
,
3001
0000
0000
0000
;

//---------------dance-single - ----------------
#NOTES:
     dance-single:
     :
     Easy:
     3:
     0.230,0.222,0.044,0.011,0.000,140.000,4.000,1.000,0.000,0.000:

0000
0000
0000
0000
,
1000
0000
0010
0000
,
1000
0000
0010
0000
,
0100
0000
0001
0000
,
0100
0000
0010
0000
,
0100
0000
0001
0000
,
1000
0010
0100
0010
,
1000
0000
0001
0000
,
1000
0001
0100
0010
,
1000
0000
0001
0000
,
0100
0010
0100
0010
,
1000
0000
0010
0000
,
1000
0100
1000
0000
,
0010
0000
0100
0000
,
0010
0000
1000
0000
,
0100
0000
0010
0000
,
0001
0000
0100
0000
,
0010
0000
1000
0000
,
0010
1000
0100
0010
,
0001
0000
1000
0000
,
0100
0010
0001
0100
,
0010
0000
1000
0000
,
0001
1000
0010
0100
,
0001
0000
1000
0000
,
0010
0100
0010
0000
,
1000
0000
0001
0000
,
0010
0100
0000
1000
,
0010
0000
0100
0000
,
0001
1000
0000
0000
,
0010
0000
1000
0000
,
0100
0010
0000
0001
,
0100
0000
0101
0000
,
0010
0000
1010
0000
,
0000
0001
1000
0010
,
0100
0000
0010
0000
,
1000
0000
0010
0000
,
0100
0010
0100
0010
,
1000
0000
0001
0000
,
1000
0000
0010
0000
,
0100
0000
0001
0000
,
1000
0000
0001
0000
,
1001
0000
0001
0000
,
0110
0000
0020
0000
,
1030
0000
0001
0000
,
1000
0010
0100
0001
,
1000
0000
0100
0000
,
0010
0001
1000
0100
,
0010
0000
0100
0000
,
1000
0010
0100
0001
,
0100
0000
0010
0000
,
1000
0010
0100
0000
,
0001
0000
1000
0000
,
0001
0010
0100
0000
,
1000
0000
0010
0000
,
0100
0000
0001
0000
,
1000
0000
0010
0000
,
1000
0000
0100
0000
,
1000
0000
0000
0000
;
